$$ WATCHING Coco (720p Video Quality)

Go down

$$ WATCHING Coco (720p Video Quality)

Post by darkzero2 on Fri May 23, 2014 12:56 am


WATCH MOVIE ONLINE , FREE STREAMING WATCH Coco FULL MOVIE ONLINE . WATCH FULL MOVIE Coco
Genre : Comedy
Release Date : 2009-07-21


WATCH or DOWNLOAD NOW ==> http://watchmovie-hd.com/film.php?id=18955

Stream Coco Movie Watch and download using your PC and mobile devices.

No overview found.
Coco.Avant.Chanel.2009.FRENCH.720p.BluRay.x264-FHD - Download
Coco.Avant.Chanel.2009.FRENCH.720p.BluRay.x264-FHD Info: ... LFE Sampling rate : 48.0 KHz Resolution : 24 bits Stream size : 1.16 GiB (27%) Title : French ...

Coco Before Chanel (2009) READNFO 720p BluRay x264 CiNEFiLE
Coco Before Chanel (2009) READNFO 720p BluRay x264 CiNEFiLE torrent. ... Stream #0.1(fre): Audio: dca, 48000 Hz, 5:1 Stream #0.2(eng): Subtitle: 0x0000 ...

Coco Before Chanel 2009 720p BluRay DTS x264 | CrazyHDSource
Complete name : Coco.Before.Chanel.2009.720p.BluRay.DTS.x264.mkv Format : Matroska ... Stream size : 3.12 GiB (71%) Writing library : x264 core 80 r1373M 4322f63

AfricanFuckTour E53 Coco XXX 720p MP4-KTR | AdultDDL
AfricanFuckTour E53 Coco XXX 720p MP4-KTR Free HD with mega.co.nz | putlocker.com | zippyshare.com ... Stream AfricanFuckTour.E53.Coco.XXX.720p.MP4-KTR

Stream Coco Before Chanel With English Subtitles Online ...
Coco Before Chanel 2009 LiMiTED DVDRip XviD-NODLABS. ... Dhoom 3 (2013) 720p BluRay Rip; RoboCop (2014) [Dual Audio] [Hindi-English] 720p BluRay Rip [Original Audio]

Streaming Gogo watch endless love full movie stream 720p ...
Stream Gogo Watch Endless Love Full Movie Stream 720p Hd Online. Watch and download using your PC and mobile devices.

[Watch Movie Online] Koko The Full Movie ~ Apr 2014
Stream Coco Avant Chanel Full Movie. Watch and download using your PC and mobile devices. ... Stream Newxx Watch The Wolf Of Wall Street Full Movie 720p.

Full Mademoiselle C 2013 Full Movie Part 1 Hd 720p
Stream Full Movie Stream Mademoiselle C 2013 Film Online Hd 720p. Watch and download using your PC and mobile devices.

SapphicErotica 13 04 28 Coco And Tina B Squirting Climax ...
Stream SapphicErotica.13.04.28.Coco.And.Tina.B.Squirting ... SapphicErotica 13 04 28 Coco And Tina B Squirting Climax XXX 720p MP4-KTR Free HD ...

Coco avant Chanel en streaming - DpStream
Coco avant Chanel [720p] Coco avant Chanel: Résumé : Une petite fille du centre de la France, placée dans un orphelinat avec sa soeur, et qui attend en vain tous ...

[[->>]] watch and download Coco Full Movie Online


free streaming Coco full movie online
watch Coco movie full

Coco Full Movie Free Online
Coco Movie

Coco Online Free

Mega Share Coco

Watch Coco Full Movie

Watch Coco Online Free

Watch Coco Online Putlocker

Coco Watch 32

Watch Coco Online Free No Sign Up
Watch Coco Online Putlocker
Watch Coco Online Free
Coco Full Movie Free No Download
Coco Online Free Movie
Coco Movie Stream Online
Coco Online Stream
Coco Movie Stream
Coco Movie Free Online
Coco Movie BitTorrent
Coco eBook Free Download
Coco Movie Free Online No Account
Watch Coco Free No Download
Coco Free Movie Online No Sign Up
Watch Coco Movie Online Free No Account
Coco Movie Torrent Download
download Coco full movie online on HD Quality free watch Coco online free
watch streaming Coco online free viooz
Coco full movie viooz
watch Coco online
Coco full movie online
Coco full movie megashare
watch Coco
where can i watch Coco

free streaming Coco full movie online
watch Coco movie full

Coco Full Movie Free Online
Coco Movie

Coco Online Free

Mega Share Coco

Watch Coco Full Movie

Watch Coco Online Free

Watch Coco Online Putlocker

Coco Watch 32

Watch Coco Online Free No Sign Up
Watch Coco Online Putlocker
Watch Coco Online Free
Coco Full Movie Free No Download
Coco Online Free Movie
Coco Movie Stream Online
Coco Online Stream
Coco Movie Stream
Coco Movie Free Online
Coco Movie BitTorrent
Coco eBook Free Download
Coco Movie Free Online No Account
Watch Coco Free No Download
Coco Free Movie Online No Sign Up
Watch Coco Movie Online Free No Account
Coco Movie Torrent Download
download Coco full movie online on HD Quality free watch Coco online free
watch streaming Coco online free viooz
Coco full movie viooz
watch Coco online
Coco full movie online
Coco full movie megashare
watch Coco
where can i watch Coco

darkzero2

Posts : 8
Join date : 2014-05-22

View user profile

Back to top Go down

Back to top

- Similar topics

 
Permissions in this forum:
You cannot reply to topics in this forum